10 Bit X265

HEVC hardware decoding is only supported on recent-ish GPU hardware such as the Intel HD600 series in the 7th gen Intel Core series, Nvidia Maxwell gen2 (GTX 750, 950-960 onwards) and AMD Polaris (RX series). mov, from here:. The video track of the 8-bit encode has 275 MiB, while the 10-bit encode has no more than 152 MiB and doesn’t look worse at all -- in fact, it even looks better than the much. All of these devices are well capable of playing x265, and even play them flawlessly when I physically put the copy on to the device and play it through an x265 capable media player. Ses var görüntü yok. Spider-Man Far From Home 2019 x265 10 bit 2160p. 265 UHDcode. 51-HazMatt Format : Matroska Format version : Version 2 File size : 780 MiB Duration : 44mn 47s Overall bit rate : 2 435 Kbps Encoded date : UTC. 265/HEVC video playback issues on Himedia Q10 Pro, Nvidia Shield Android TV Box, Apple TV 4, Boxee, etc. 4 hours ago. 자막파일 Wanted. x265 Documentation¶. 4[자체자막] 늑대인간의 후예 Wildling. The video track of the 8-bit encode has 275 MiB, while the 10-bit encode has no more than 152 MiB and doesn’t look worse at all -- in fact, it even looks better than the much larger 8-bit encode. Zidoo x6pro var elimde. 1 Qman) [UTR]. i can not test this with my GTX 980TI as it does not. 1 EAC3… 페이지 정보 작성자 익명 댓글 0건 조회 1회 작성일 2020-10-17 01:50. But if your computer doesn't have NVIDIA graphic cards, x265 will be the only selection. Yagami Colaborador Novato. 265/HEVC compression standard. General Unique ID : 235894509842378631027298245936706211615 (0xB177A1492282F8CAA2368753D6FFCF1F) Complete name : Overlord II - 10 [1080p] x265[10 bit] - DZY. Samsung's 2014 and 2015 sets all support native x264/HEVC 10 bit media playback. 1) [UTR] Black Panther (2018) (IMAX) + Extras (1080p BluRay x265 HEVC 10bit EAC3 7. com/Silent Running 1972 1080p BluRay x265 HEVC 10bit AAC 2. Playback is with Media Player Classic HC using MADVR as the renderer. The film stars Irrfan Khan, Dulquer Salmaan and Mithila Palkar. 1 [XannyFamily]. [email protected]~$ x265 -V -D10 x265 [info]: HEVC encoder version 2. The latest version of the x265 vfw encoder comes also with the x265vfw DirectShow decoder so can be used in any DirectShow software like MPC-HC. Có thể nhiều ae không biết nên mình giới thiệu qua. 265 video sample. x265 Documentation. 265) video encoder in the world - Offer the highest possible quality at any given bit rate - Offer the lowest possible bit rate for a given quality level. NVIDIA encoding benchmarks use the bitrate savings compared with open source encoders x264 and x265's medium preset output, as a measure of the encoding quality. Now on my old 'puter , an old 2. Layer Cake (2004) 1080p Bluray 10-bit x265 HEVC DTS AC3 5. 1 GB or more of available hard-disk space for 64-bit installation; additional free Version : 2020 v21. Total size 4. 10-bit and 12-bit profiles for Bluray DVD Ripping. In the latest 1. name Fargo. 5 ITU-R recommendations for H. How to play HEVC (THIS FILE). Файл Кодек: H. 8K) + 24 2020. 2+35-acc5d16999e2:[Windows][GCC 9. exe -i inputVideo. The reference PSNR was based on the original 10-bit video. If the download link is not working or need any other Microsoft Windows edition. A few weeks ago I tried to play 4K videos in MXQ-4K TV box powered by Rockchip RK3229 processor. Also, both encoders are running in 10-bit color depth mode instead of the common 8-bit, meaning that the internal arithmetic precision is boosted from 8- to 16-bit integers as well. General Unique ID : 235894509842378631027298245936706211615 (0xB177A1492282F8CAA2368753D6FFCF1F) Complete name : Overlord II - 10 [1080p] x265[10 bit] - DZY. Atmos-SWTYBLZ 24. [Reaktor] Cowboy Bebop – Complete [1080p][x265][10-bit][Dual-Audio] Synopsis In the year 2071, humanity has colonized several of the planets and moons of the solar system leaving the now uninhabitable surface of planet Earth behind. 2 kb/s Count of elements : 1785 Stream size : 8. HEVC hardware decoding is only supported on recent-ish GPU hardware such as the Intel HD600 series in the 7th gen Intel Core series, Nvidia Maxwell gen2 (GTX 750, 950–960 onwards) and AMD Polaris (RX series). 2020 is still under development, the advantages it offers will drive a fast, widespread adoption of 10-bit colors in the 4K TV and HEVC space. While somewhat “non-standard” for H. it 10bit X265. x264 high 10 @hi10p (non standard) , can accelerate but will have random artifacts. 10bit X265 - axtp. For example, my rip of Reservoir Dogs is 1. Atmos-SWTYBLZ 24. Then I tried playing the videos side by side. ASUS PB287Q 28" UHD 3840 x 2160 (4K) 1ms (GTG) 60 Hz HDMI/MHL, DisplayPort Built-in Speakers 10-bit Color Monitor Pixel Pitch: 0. You are able to locate the 10-bit profiles for Bluray DVD ripping. Изображение и кодеки. It was a format that was pretty much only used by a few anime groups, so no one bothered. From the above image, I am sure you'd like to rip and encode Bluray or DVD to 10-bit or even 12-bit. *Edit simply H. 1) MSubs-Masti 4. Posted in Movies - Highres Movies. Bit depth : 10 bits Bits/(Pixel*Frame) : 0. 0737 Billion (10bit). name Fargo. 2 Video ID : 1 Format : HEVC Format/Info : High Efficiency Video Coding Format profile : Main [email protected]@Main Codec ID. 265, otherwise HEVC, is becoming the new mainstream video codec format. [Reaktor] Akira - 30th Anniversary [1080p][x265][10-bit][Dual-Audio]. Usually 1080 progressive scan (1080p) and x265 codec with 10-bit color depth per channel would be preferred. 8-bit with same settings - 93 fps. Vero 4K can play back 8-bit and 10-bit H265, but 10-bit H264 is not possible. Also, please note that, although 10-bit and 4K UHD videos are available at the end of the list, decoding them in software is very demanding and most devices cannot handle the 720p videos are provided through Elecard. The device costs only about $30 including shipping, and it would have been if it could indeed play 10-bit H. The packs include both 32-bit and 64-bit codecs, so they work great on both x86 and x64 variants of Windows!. 10 식물도감 Evergreen. This is largely due to the proliferation of 4K and 8K videos that consume Publishers are now updating their encoder software to ensure compatibility with the H. 10-bit and 12-bit profiles for Bluray DVD Ripping. @torrent_see. 1 Qman) [UTR] 리추얼: 숲속에 있다 The Ritual (2017) (1080p 10-bit x265 HEVC AC3 5. 6CH-MRN Season: 03 Episodes: 18 Summary: Set in the fictional town of Twin Peaks in. length 693163358. 072 Stream size : 100 MiB (61%) Writing library : x265 2. 0][64 bit] 10bit x265 [info]: using cpu capabilities: MMX2 SSE2Fast SSSE3 SSE4. 4K and 3D formats are also available. Lo, Just got a 4k set and have been trying to. Even if your source video doesn’t use the HDR color space, it compresses better. You can click on Config button to choose x265 profile and then save settings by pressing the OK button. More detailed, sharper image. Old versions also with XP. The same is true for 12-bit, in principle, but the extra resolution over 10-bit shouldn't be significant for normal end-use. [Reaktor] Prison School - E12 Uncensored v2 [1080p][x265][10-bit][Dual-Audio]. 2+35-acc5d16999e2:[Windows][GCC 9. Скачать с помощью Mediaget. net/projects/ffmpegyag/). The GUI supports 32-Bit operating systems now, but Benchmarking will be disabled on such systems for obvious reasons. In pass 1 and 2, use the -x265-params pass=1 and -x265-params pass=2 options, respectively. According to ITU-R BT. 264, AV1 and VP9 for a breath-taking playback of HDR videos with wider color spectrum, TRUE HDR colors (NO dull grey colors), smooth video play (NO Stuttering), NO jitters, NO buffering. ile denedik. 0][64 bit] 8bit+10bit+12bit * x265 2. Xcode 5 with the most recent patches can Applications like ffmpeg and the x265 CLI which use our bit-depth introspection API (x265_api_get) instead of the globally exported C interface can. 79 GB (4 998 kb/s, x265 10 bit). MP4, MKV, and M2TS are available for Bluray DVD 10-bit ripping. 5 Mbps Bits/(Pixel*Frame): 0. This builds the 10-bit and 12-bit versions of x265 as static libraries, which then get linked into the 8-bit dynamic library and executable. Traditionally, HandBrake adopts x265 as the HEVC encoder for HEVC and HEVC 10-bit/12-bit to achieve an efficient encoding process. 9 + libmatroska v1. 265 in 10-bit created with a Z-Cam E2C is properly supported, which I would test intensively before purchasing the device, what are your plans for exporting and sharing recordings with 10-bit?. 젠틀맨 The Gentlemen (2019) 1080p Bluray 10-bit x265 HEVC TrueHD 7. 8 Mbps Maximum bit rate: 26. Also, both encoders are running in 10-bit color depth mode instead of the common 8-bit, meaning that the internal arithmetic precision is boosted from 8- to 16-bit integers as well. دانلود رایگان فیلم Over The Moon 2020 با کیفیت BluRay 720p. 2016-09-10, 09:17. It was written by Justin Haythe and based on the 1961 novel of the same name by Richard Yates. 1 Silence) Featurettes/Season 1/Legend Re-Imagined. 10-bit 1080p Great Great Pretender HEVC miniMKV Pretender Summer 2020. 51-HazMatt Format : Matroska Format version : Version 2 File size : 780 MiB Duration : 44mn 47s Overall bit rate : 2 435 Kbps Encoded date : UTC. 2018년 1월 27일 로테르담 국제 영화제에 첫 상영하였으며 동년 7월 12일 네덜란드에서 첫 개봉하였다. Ula Leni ( උලළේනි ) 2019 DVD 720p 2Ch HEVC 10bit x265 - ( 370 MB ) HEVC x265 - Stream & Direct. Features Overview Provides next-generation compression and codec. Download Karwaan (2018) Full Hindi Movie 1080p 10Bit x265 WEBRip Google Drive. 자막파일 A Street Cat Named Bob (2016) 1080p Bluray 10-bit x265 HEVC DTS AAC 5. Enjoy from over 30 Lakh Hindi, English, Bollywood, Regional, Latest, Old songs and more. But if your computer doesn't have NVIDIA graphic cards, x265 will be the only selection. Last Week Tonight With John Oliver S07E27 WEBRip x264-ION10 + 1080p x265 [MEGA]. 265/HEVC video playback issues on Himedia Q10 Pro, Nvidia Shield Android TV Box, Apple TV 4, Boxee, etc. 동명소설이 원작이며 감독은 르네 엘러. In comparison to AVC, HEVC offers from 25% to 50% better data compression at the same level of video quality, or substantially improved video quality at the. Atmos-SWTYBLZ. دانلود رایگان فیلم Over The Moon 2020 با کیفیت BluRay 720p. x265 Documentation¶. Файл Кодек: H. Now, if I hadn't hardcoded the dithering for the 10-bit encode and instead passed a high-bit-depth picture to x264, it would've resulted in even. Complete name : The. Also, both encoders are running in 10-bit color depth mode instead of the common 8-bit, meaning that the internal arithmetic precision is boosted from 8- to 16-bit integers as well. 2017-12-07 22:30 GMT+01:00 George Nistor <[hidden email]>: > Incompatible pixel format 'yuv420p10le' for codec 'libx265', > auto-selecting format 'yuv420p' Your x265 encoding library was compiled without 10-bit support, this cannot be fixed within FFmpeg. I used the 10-bit version of FFmpeg to encode the file to a HDR compatible output. - Gyan Apr 19 '16. Subtitle #8 ID : 10 Format : VobSub Muxing mode : zlib Codec ID : S_VOBSUB Codec ID/Info : Picture based subtitle format used on DVDs Duration : 2 h 0 min Bit rate : 10. These codec packs are compatible with Windows Vista/7/8/8. 10 bit x265. The Boys S02E05 (1080p AMZN WEB-DL x265 HEVC 10bit AAC 5 1 Joy) [MKV] Warning! This is x265 (HEVC) Codec, some old players may not be able to play this video. Bir kod çözücü, dosyalardan. 10 bit x265 movies. 0][64 bit] 10bit x265 [info]: using cpu capabilities: MMX2 SSE2Fast SSSE3 SSE4. 155mm Display Colors: 1. 1 [XannyFamily][파일] The Dark Knight 2008 1080p Bluray 10-bit x265 HEVC TrueHD AC3 5. Features Overview Provides next-generation compression and codec. [Reaktor] Cowboy Bebop – Complete [1080p][x265][10-bit][Dual-Audio] Synopsis In the year 2071, humanity has colonized several of the planets and moons of the solar system leaving the now uninhabitable surface of planet Earth behind. Olympus S01E10 Heritage (1080p x265 10bit apekat). 10 bit color. Well, 10-bit has 4 times the resolution of 8-bit, so yes, rounding errors will be smaller. pinn Member Posts: 60 #1. 264 high profile | H. @torrent_see. X-Men (2000) in 1080p, encoded with x265 in HEVC and AAC 5. 2년 전에 프로메테우스 Extended Fan Cut을 만들어 배포한 적이 있었는데요 (Prometheus. 3 yıldır bu tür cihazları kullanıyorum ama ben biraz geride kaldım. MP4, MKV, and M2TS are available for Bluray DVD 10-bit ripping. As I mentioned in the last blog post on HEVC encoding in response to "Unknown" in the comments, I do believe there are potential subtle benefits to the use of the 10-bit x265 encoder in Handbrake even with an 8-bit video source. 265), featuring high compression ratio with improved video quality but lower bit rate, is now widely used in many fields, from digital cameras. 2017-12-07 22:30 GMT+01:00 George Nistor <[hidden email]>: > Incompatible pixel format 'yuv420p10le' for codec 'libx265', > auto-selecting format 'yuv420p' Your x265 encoding library was compiled without 10-bit support, this cannot be fixed within FFmpeg. I intend to convert my rig 2 in my signature to an HTPC. Operating system: Microsoft Windows 7 with Service Pack 1 (64-bit), Windows 10 (Version 1709 or later). Therefore, you can just select those presets and "BOOM!". 301 Moved Permanently. The HEVC 10-bit encode capability was verified using the attached 'modified_sample_encode' code, which was exclusively modified to support this particular. 264,VP9 등 최신 고품질 영상 코덱의 영상도 하드웨어 가속 기능을 사용하여 CPU 점유율이 매우 낮아 저사양 PC 또는 멀티 태스킹 환경에서도 원할하게 고품질 영상을 감상 할 수 있습니다. 10 bit isn't tied to HDR. HDR] 龙虎少年队/逃学黐孖咇 21. Simple x264/x265 Launcher free download, safe, secure and tested for viruses and malware by LO4D. AAC-highcal. 10-bit 1080p Great Great Pretender HEVC miniMKV Pretender Summer 2020. I don't have usually a problem with that. Blu… 아스팔트 정글 The. New in Pro Tools 10 is the ability to create 32 floating point audio files when recording, in addition to the 16 and 24 bit options that we are accustomed to. Revolutionary Road is a 2008 British-American romantic drama film directed by Sam Mendes. 3- کیفیت Web-dl 1080p 10 bit x265: حجم 593 مگابایت. You can follow the question or vote as helpful, but you cannot reply to this thread. 리추얼: 숲속에 있다 The Ritual (2017) (1080p 10-bit x265 HEVC AC3 5. 265/HEVC Video such. Video encoder is H. 265 / HEVC encoder software library. With a promise to ensure everything for everyone, Microsoft launched its latest operating system (OS) Windows 10 Pro on July 29, 2015. 1 Qman) [UTR] 리추얼: 숲속에 있다 The Ritual (2017) (1080p 10-bit x265 HEVC AC3 5. Even if your source video doesn’t use the HDR color space, it compresses better. With a promise to ensure everything for everyone, Microsoft launched its latest operating system (OS) Windows 10 Pro on July 29, 2015. 875 FPS (1024 SPF) Compression mode: Lossy Stream size: 157 MiB (10%. Check the 10bit or 12bit filter so you are able to locate your desired profiles faster. better search for hevc 10bit. Хищные птицы: Потрясающая история Харли Квинн / Birds of Prey: And the Fantabulous Emancipation of One Harley Quinn (2020) WEB-DL [H. cinematic camera - Shoots 4K @ 120 fps, 4/3" WDR CMOS sensor, 10 bit, 13 stops dynamic range, live stream 12-Bit ProRes RAW recording over HDMI to the Ninja V 5" HDR monitor-recorder. 7 x86 & x64. MP4, MKV, and M2TS are available for Bluray DVD 10-bit ripping. You are allowed to play any Blu-ray disc/ISO files directly with 1080p HD visual effect and. More detailed, sharper image. The video track of the 8-bit encode has 275 MiB, while the 10-bit encode has no more than 152 MiB and doesn’t look worse at all -- in fact, it even looks better than the much larger 8-bit encode. 265), featuring high compression ratio with improved video quality but lower bit rate, is now widely used in many fields, from digital cameras. Wynk Music - Download & Listen mp3 songs, music online for free. Benchmarking Pre-Alpha x265. The Boys S02E05 (1080p AMZN WEB-DL x265 HEVC 10bit AAC 5 1 Joy) [MKV] Warning! This is x265 (HEVC) Codec, some old players may not be able to play this video. Hard disk space: 3. 265 compression is inherently Long-GOP based, but Lower bit rate Long-GOP flavour at 200Mbps is also available for both UHD and 4K up to 30p. Full Movies via Streaming Link for free. But in terms of encoding speed x265 is pretty fast compared to vp9 oder even av1. As I mentioned in the last blog post on HEVC encoding in response to "Unknown" in the comments, I do believe there are potential subtle benefits to the use of the 10-bit x265 encoder in Handbrake even with an 8-bit video source. Very rarely I come across to non 10bit x265 media and those files have problems in any PC, not just C2. [email protected] Codec ID : V_MPEGH/ISO/HEVC Duration : 1 h 48 min Bit rate : 1 080 kb/s Width : 1 280 pixels Height : 536. 5 Mbps Bits/(Pixel*Frame): 0. 1,898 likes · 1 talking about this. Either of the encoders can be enabled. 264, AV1 and VP9 for a breath-taking playback of HDR videos with wider color spectrum, TRUE HDR colors (NO dull grey colors), smooth video play (NO Stuttering), NO jitters, NO buffering. AAC-highcal. Assuming that h. 守墓屋/地狱三部曲之守墓屋 The. Video Encoder H. Also, both encoders are running in 10-bit color depth mode instead of the common 8-bit, meaning that the internal arithmetic precision is boosted from 8- to 16-bit integers as well. 3 GiB (96%) Language : English Default : Yes Forced : No Color range : Limited Color primaries : BT. I'm on the latest Nvidia Web Driver (GTX 960) and I get a lot of stuttering while playing a h. Microsoft Windows Media Player 12 Pack Plus differs from the usual Media Player Codec Pack by including more encoder codec's, including additional 64bit codecs. piece length 2097152. If you would like to donate to keep this site running please feel free to send ETH to Updated to now include 12bit depth binaries. length 693163358. 264/AVC, this is officially supported by H. Playback is with Media Player Classic HC using MADVR as the renderer. Then I tried playing the videos side by side. mkv 400 Mbps 3840x2160 HEVC High. Top Gear / TV Show. So I decided to perform a test, using the source named BMPCC6K_Wedding. Until we get these improvements, I wanted to see how to fully utilize all 128 cores. 1361 and BT. 4/10 based on 47 user ratings Genre : Game-Show Two grown-ups claim to be experts on a topic and one of them. 1 [XannyFamily]. In Kodi I do not recall any x265 specific setting either. The software upgrade will include UHDcode, a very handy HEVC decoder that you can use to render. mp4 -o newVideo. * Support 4K UHD Blue-Ray Navigation * Powerful subtitle function, Support random change any fonts with different color effects; Support download subtitle online; Support SUP&ASS special effects subtitles * Unparalleled. By default, an x265 (HEVC) 8 vs 10-bit comparison is selected, at 400kbps and an encoding preset speed of "Slow". 16>, although 8 is the the “true maximum” x265 can currently use and any more actually doesn’t improve quality. com Sudden Death 1995 1080p BluRay x265 HEVC 10bit 5,1ch(xxxpav69 Movies 6 hours torrentfunk. 10bit X265 - axtp. If you would like to donate to keep this site running. Use 64bit if possible, it is faster, on some platforms by quite a big margin. Although BT. x265, HEVC, and 10-bit aren't. Скачать с помощью Mediaget. With a promise to ensure everything for everyone, Microsoft launched its latest operating system (OS) Windows 10 Pro on July 29, 2015. The film stars Irrfan Khan, Dulquer Salmaan and Mithila Palkar. X265 is the spearhead of the next generation of codecs. For example, my rip of Reservoir Dogs is 1. In VS 2017 binaries there is only 8-bit x265-8b_32. mp4 -o newVideo. 265/HEVC compression standard. RAW 8bit RAW 10bit RAW 12bit RAW 16bit RGB 3x8bit RGB 3x10bit RGB 3x12bit. Very rarely I come across to non 10bit x265 media and those files have problems in any PC, not just C2. Caravan; Hindi pronunciation: [kaːɾʋaːn]) is a 2018 Indian Hindi-language road comedy-drama film written and directed by debutant Akarsh Khurana, and produced by Ronnie Screwvala and Priti Rathi Gupta. 0737 Billion (10bit). 1 Silence) Featurettes/Season 1/Legend Re-Imagined. [Reaktor] Prison School - E12 Uncensored v2 [1080p][x265][10-bit][Dual-Audio]. 2016-09-10, 09:17. Use 64bit if possible, it is faster, on some platforms by quite a big margin. x265 is the best HEVC (H. The CRF videos were done via Handbrake using x265 10-bit, whereas everything else was done via ffmpeg using x265 or x264 8-bit. Clicking the various options will let you see the output of the selected settings. Compression types that you will be able to play include: x264 | x265. mkv (391 MB). And if you want to play HEVC videos in any video player on your Windows 10 device, install HEVC Video Extension, from Microsoft. Please note, HandBrake nightly builds no longer requires x265 dll's for 10 and 12bit encoders. Review by A. » Click to show Spoiler - click New LG smart tv and 4K tv got hevc hardware decoder. 16 17:14 A Street Cat Named Bob 2016 1080p Bluray 10-bit x265 HEVC DTS AAC 5. 10 식물도감 Evergreen. Windows 10, you need to convert them to the editor original supported codec, like DNxHD for Avid Media Composer, MPEG-2 for Adobe Premiere Pro, MPEG-4 Movie for Edius Pro, etc. https://yadi. 10bit-GalaxyRG ⭐. Bad Education 2019 1080p BluRay 10Bit x265 HEVC-HDETG-VS. By default, an x265 (HEVC) 8 vs 10-bit comparison is selected, at 400kbps and an encoding preset speed of "Slow". Much older applications that pre-date Windows 95 will sometimes require a bit more work. HandBrake : https://handbrake. Full Movies via Streaming Link for free. NAME Borat (2006) (1080p BluRay x265 HEVC 10bit AAC 5. AAC-highcal. 0 MONOLITH) Season 1 - 24x265 is the HEVC encoder of choice for many leading video encoder manufacturers and video system operators, providing higher visual quality at any desired bit rate than competing. Download X265vfw-H. better search for hevc 10bit. 265 codecs at 4K and 8K resolutions. x265-RARBG 한글. Scenecut 1 if the frame is a scenecut, 0 otherwise. 4 / 10 Rating. 265 (HEVC) transcoding at 4K resolutions mandates 10-bit color. x265 is the leading H. x265 encoder jest kodekiem przeznaczonym do kodowania strumieni H. 5 Mbps Bits/(Pixel*Frame): 0. 6+8-fc0570b8d8f9:[Windows][MSVC 1911][64 bit] 10bit. 7 Mb/s Width : 640 pixels Height : 480 pixels Display aspect ratio : 4:3 Frame rate mode : Constant Frame rate : 23. – Gyan Apr 19 '16. 4 MB Duration: 33s 567ms Bit rate: 16. - Gyan Apr 19 '16. Trova una vasta selezione di Decoder dvb-t2 h265 a prezzi vantaggiosi su eBay. Philips on Jun 3, 2020 Version: 3. Scegli la consegna gratis per riparmiare di più. Subtitle #8 ID : 10 Format : VobSub Muxing mode : zlib Codec ID : S_VOBSUB Codec ID/Info : Picture based subtitle format used on DVDs Duration : 2 h 0 min Bit rate : 10. 265 Качество: WEB-DL-HEVC 2160p Видео: MPEG-H HEVC, HDR, 3840x1608 (2. Microsoft Windows Media Player 12 Pack Plus differs from the usual Media Player Codec Pack by including more encoder codec's, including additional 64bit codecs. 10bit参数表示:超高清小尺寸. Caravan; Hindi pronunciation: [kaːɾʋaːn]) is a 2018 Indian Hindi-language road comedy-drama film written and directed by debutant Akarsh Khurana, and produced by Ronnie Screwvala and Priti Rathi Gupta. NOTE: Installation is only possible when using a clean (blank) machine with no other prior version of Windows already installed. Download Revolutionary Road (2008) 1080p Bluray x265 10bit HEVC Dual Audio Hindi + English Google Drive. 리추얼: 숲속에 있다 The Ritual (2017) (1080p 10-bit x265 HEVC AC3 5. x265 Documentation¶. Will 10-bit use more CPU, GPU, or both?. Hope that the above help. Subito a casa e in tutta sicurezza con eBay!. 10 bit x265. 875 FPS (1024 SPF) Compression mode: Lossy Stream size: 157 MiB (10%. 265), 13 stops of dynamic range (16 stops with WDR). Very rarely I come across to non 10bit x265 media and those files have problems in any PC, not just C2. Read the topic about 8 bit vs 10 bit anime? on MyAnimeList, and join in the discussion on the largest online anime and manga database in the world! I wasn't really referring to fansubbers in particular. 해외영화 TOP10 매주월요일이면 업데이트 됩니다. Until we get these improvements, I wanted to see how to fully utilize all 128 cores. 16 17:14 A Street Cat Named Bob 2016 1080p Bluray 10-bit x265 HEVC DTS AAC 5. Modos de tema. Stripped Los Angeles 1080p WEBRip 6CH HEVC x265-BvS [G. According to ITU-R BT. This causes x265 to default to 8-bit, but make 10- and 12-bit available to callers that use introspection, such as ffmpeg. StaxRip Tutorial for 10bit H265 encoding (Nvidia Pascal GPU). Subtitle #8 ID : 10 Format : VobSub Muxing mode : zlib Codec ID : S_VOBSUB Codec ID/Info : Picture based subtitle format used on DVDs Duration : 2 h 0 min Bit rate : 10. per il dvb-t2 lo standard adottato sarà h. The 10-bit video sequences were converted to 8-bits for the Main profile and remained at 10-bits for the Main 10 profile. 4 MB Duration: 33s 567ms Bit rate: 16. They will NOT work with the 0. 2 kb/s Count of elements : 1785 Stream size : 8. 265 & ProRes) & 8-bit (H. 1) MSubs-Masti 2. The film stars Irrfan Khan, Dulquer Salmaan and Mithila Palkar. Custom preview Bit Light 10 by sRB-Powers. Also, please note that, although 10-bit and 4K UHD videos are available at the end of the list, decoding them in software is very demanding and most devices cannot handle the 720p videos are provided through Elecard. exe – it is not mistake: 10-bit, 12-bit and multilib versions (for Win32) are only in GCC binaries. It also ONLY supports those x264/x265 variants, so if you’re using the standard 8-bit CLI, you’ll still want to keep it around. 265 a 10 bit,se il decoder del televisore è ad 8 bit ci sarà il rischio di non vedere i canali ed essere costretti a munirsi di un decoder esterno che supporti h. More Details. Product ships in a white envelope. After that you type "-output-depth 10" *Solve H. 5 Mbps Bits/(Pixel*Frame): 0. 5/10 Genre(s): Action. 10 bit x265 movies. Feel free to tell me where I'm wrong Shot in 4k 24p H265 10bit - Exported through iMovie in 1080p. "Enabling access to HEVC/H. Not sure about other tv manufacturers but hevc is. 12/28/2017. 16 17:14 A Street Cat Named Bob 2016 1080p Bluray 10-bit x265 HEVC DTS AAC 5. For example, if you want to see the difference at insanely low bitrates, you might select a bitrate of 50 on each side, then hit the Show Changes. 265 or HEVC video decoder. by xlostincyberx | created - 24 Sep 2018 | updated - 31 May 2019 |. 10 bit x265. By using DVDFab Passkey for BluRay & DVD with this Codec Pack, Windows 7, 8 , 8. Then I tried playing the videos side by side. 10 bit isn't tied to HDR. 2 kb/s Count of elements : 1785 Stream size : 8. evil XDA Developers was founded by developers, for developers. 10-bit is indeed slower, but not unacceptably so. 8-bit compression of a 10-bit source 10-bit 10-bit Compression 10-bit Decoding Encoder Decoder 10-bit compression of a 10-bit source However, this is only a part of the story: encoding pictures using 10-bit processing always saves bandwidth compared to 8-bit processing, whatever the source pixel bit depth. [5번] 타겟 넘버 원 Target. x265 source code is written in C++ and assembly. 072 Stream size : 100 MiB (61%) Writing library : x265 2. K tomuto souboru nejsou přidány žádné komentáře. 6 Writing library : x265 3. 155mm Display Colors: 1. x265, HEVC, and 10-bit aren't. NVIDIA encoding benchmarks use the bitrate savings compared with open source encoders x264 and x265's medium preset output, as a measure of the encoding quality. For example, if you want to see the difference at insanely low bitrates, you might select a bitrate of 50 on each side, then hit the Show Changes. sk/i/R8KWSrl537WFIA. AC3-highcal. Much older applications that pre-date Windows 95 will sometimes require a bit more work. x265 – Tears Of Steel 1080P @ 400kbps x264 – Tears Of Steel 1080P @ 400kbps x265 – Tractor 1080P @500kbps x264 – Tractor 1080P @ 500 kbps x265 – Big Buck Bunny 4K @ 2 Mbps x264 – Big Buck Bunny, 4K @ 2 Mbps. Either of the encoders can be enabled. exe -i inputVideo. 265/HEVC video playback issues on Himedia Q10 Pro, Nvidia Shield Android TV Box, Apple TV 4, Boxee, etc. 4K Samples. Features Overview Provides next-generation compression and codec. com/Silent Running 1972 1080p BluRay x265 HEVC 10bit AAC 2. Frame rate. 1 and 10 users can play: Protected Bluray, AVCHD, DVD. 마그넷 링크(torrent magnet link) [마그넷] The Dark Knight (2008) 1080p Bluray 10-bit x265 HEVC TrueHD AC3 5. Raised by Wolves 2020 S01 1080p 10bit WEBRip 6CH x265 HEVC torrent download, InfoHash 67515FF565BBC258E72A21A7274E715E51F79DA3. Kojou Akatsuki’s days as an ordinary high school student in the Demon District of Itogami Island come to an abrupt end after a fateful encounter leaves him with the remarkable abilities of a vampire. 265/MPEG-H HEVC compression format, and is released under the terms of the GNU GPL. Consensus is that optimally you should use ref=6 for 10-bit anime encodes. 265 & ProRes) & 8-bit (H. 0 kHz, 6 ch, 448 kb/s | RUS (MVO / NewComers) |. * ffdshow DirectShow Video Codec 1. My settings for 1080p movies. mp4 please help me cheers, Zsolt _____ FIGYELMEZTETÉS: "Ez az e-mail bizalmas információkat tartalmaz. 265 and 10-bit H. 10bit-GalaxyRG ⭐. bit rate 8bit codec. DOWNLOADDownpour 1972 Criterion 1080p BluRay x265 HEVC 10bit AAC 1. V For Vendetta (2005) 1080p BlurayRip 10-bit x265 HEVC DTS AAC 5. CommunitySee All. 265 All-Intra option is a bit strange to me, as I have always thought that the H. The device costs only about $30 including shipping, and it would have been if it could indeed play 10-bit H. Right-click to save these files on your PC, then play them with Windows Media Player after installing the x265 HEVC Upgrade. 1) [UTR] Black Panther (2018) (IMAX) + Extras (1080p BluRay x265 HEVC 10bit EAC3 7. 0 x86 & x64. So I decided to perform a test, using the source named BMPCC6K_Wedding. Mp4 or your last used profile is the default for ripping. Please note, HandBrake nightly builds no longer requires x265 dll's for 10 and 12bit encoders. 1 [XannyFamily]. [Tâm Lý ] Paprika 1991 1080p Bluray x265 HEVC 10 bit DD2. This is a static FFmpeg build including x264 (8/10 bit), x265 (8/10 bit), vp9 (8/10 bit) and fdk_aac (HE-AAC) especially for anime encoding. Brorsoft Player (Blu-ray Power) is a powerful player that can afford Blu-ray disc, Blu-ray folder, Blu-ray ISO and common media files and videos smoothly. Incidentally, 10 years ago at ConCen, people could add comments at the bottom of the page immediately below the description of a torrent, and many people did comment, saying thanks or adding some bit of info about it. mkv", codec "x265" y "10 Bit", deberás contar con un reproductor actualizado, además de una computadora con capacidades decentes para que el capítulo pueda reproducirse correctamente. Home of the Windows 10 Codec Pack, a codec pack specially created for Windows 10 users. 드라마, 멜로/로맨스 아일랜드 4분 클레어 딕스 마리온 오드와이어, 시안 베리, 뮈어언 버드. Raised by Wolves 2020 S01 1080p 10bit WEBRip 6CH x265 HEVC torrent download, InfoHash 67515FF565BBC258E72A21A7274E715E51F79DA3. 265/HEVC Video such. 000 fps, 15. * HDR 10 BIT VIDEO CODECS [PRO]: Highly Optimized 4K 10bit HEVC, H. Bit Light 10. x265 Encoder 2. To 10-bit or not to 10-bit? Thankfully there is a simple answer. 7 x86 & x64. 해외영화 TOP10 매주월요일이면 업데이트 됩니다. [Reaktor] Akira - 30th Anniversary [1080p][x265][10-bit][Dual-Audio]. 2020 Transfer characteristics : PQ Matrix coefficients. x265 source code is written in C++ and assembly. sk/i/R8KWSrl537WFIA. Install 32 bit Software on 64 bit Windows: This topic is quite interesting as it is always a question whether a 32-bit architecture can be used on a different architecture like a 64 bit Architecture Windows 10. Feel free to tell me where I'm wrong Shot in 4k 24p H265 10bit - Exported through iMovie in 1080p. TOP 4K X265 HDR MOVIES. It’s critical that when using it, you specify the encoder-profile. ogv download. The film stars Irrfan Khan, Dulquer Salmaan and Mithila Palkar. mkv (391 MB). 1 [XannyFamily][파일] The Dark Knight 2008 1080p Bluray 10-bit x265 HEVC TrueHD AC3 5. You're going to lose quality doing what you're doing because you're going from lossy to lossy. 10 식물도감 Evergreen. Also, both encoders are running in 10-bit color depth mode instead of the common 8-bit, meaning that the internal arithmetic precision is boosted from 8- to 16-bit integers as well. Bruce Springstens Letter To You 2020 1080p ATVP WEBRip 6CH HEVC x265-BvS [G. Language English. In VS 2017 binaries there is only 8-bit x265-8b_32. 1 [XannyFamily] A good quality x265 encode at a decent size with DTS audio. Built 2020-10-26: 64Bit-8bit. 072 Stream size : 100 MiB (61%) Writing library : x265 2. 8 Mb/s, 10 Bit Аудио 1: AC3, 48. From the above image, I am sure you'd like to rip and encode Bluray or DVD to 10-bit or even 12-bit. 7 x86 & x64. The video track of the 8-bit encode has 275 MiB, while the 10-bit encode has no more than 152 MiB and doesn't look worse at all -- in fact, it even looks better than the much larger 8-bit encode. On the left side of the window (where "Basic" is currently active), click on "Other". 265 and 10-bit H. mkv 482 MB Please note that this page does not hosts or makes available any of the listed filenames. With a promise to ensure everything for everyone, Microsoft launched its latest operating system (OS) Windows 10 Pro on July 29, 2015. 1 [X… 페이지 정보 작성자 익명 댓글 0건 조회 1회 작성일 2020-10-15 01:10. Rating : 5. Release date: 10 Mar 1972. 0][64 bit] 8bit+10bit+12bit * x265 2. * ffdshow DirectShow Video Codec 1. Download Karwaan (2018) Full Hindi Movie 1080p 10Bit x265 WEBRip Google Drive. Файл Кодек: H. x265 Project Goals. 265 codecs at 4K and 8K resolutions. 8K) + 24 2020. 16 17:14 A Street Cat Named Bob 2016 1080p Bluray 10-bit x265 HEVC DTS AAC 5. length 693163358. Windows 10 Codec Pack has been created to make installing major codec's, filters, plug-ins and splitters a simpler task. 265/HEVC compression standard. Brorsoft Player (Blu-ray Power) is a powerful player that can afford Blu-ray disc, Blu-ray folder, Blu-ray ISO and common media files and videos smoothly. 265 in 10-bit created with a Z-Cam E2C is properly supported, which I would test intensively before purchasing the device, what are your plans for exporting and sharing recordings with 10-bit?. 0 kHz, 6 ch, 448 kb/s | RUS (MVO / NewComers) |. piece length 2097152. 10bit nvenc_hevc should at lease produce some smaller files. Có thể nhiều ae không biết nên mình giới thiệu qua. net/projects/ffmpegyag/). On my A5, 10-bit HEVC is not working in Kodi. I figured I'll run a very quick test to show what I've seen. 2020 is still under development, the advantages it offers will drive a fast, widespread adoption of 10-bit colors in the 4K TV and HEVC space. 4K/60p is only in Long-GOP in either H. 265 10bit 4K now playback smoothly on most modern machines, due to better hardware acceleration. Then I tried playing the videos side by side. 1 [X… 페이지 정보 작성자 익명 댓글 0건 조회 1회 작성일 2020-10-15 01:10. In a PSNR based performance comparison released in April 2013 the Main 10 profile was compared to the Main profile using a set of 3840×2160 10-bit video sequences. 265 oraz X265 użyjemy podczas pracy z takimi aplikacjami jak Avidemux, ELDER, ffdshow, ffmpeg. 7+512, [Windows][MSVC 1600][64 bit] 10bit * x265 2. Mp4 or your last used profile is the default for ripping. Millions of people warmly welcomed […]. Download Karwaan (2018) Full Hindi Movie 1080p 10Bit x265 WEBRip Google Drive. You can make perfect looking encode for bluray episode that is usually over 7GB with cqp=17 (of course there's much more option except this). Feel free to tell me where I'm wrong Shot in 4k 24p H265 10bit - Exported through iMovie in 1080p. 265/HEVC Video such. This is recommended for 8-bit encodes or low-bitrate 10-bit encodes, to prevent color. x265-TERMiNAL. Usually the result is somewhere between 2 and 5 GB for feature films. But if your computer doesn't have NVIDIA graphic cards, x265 will be the only selection. However ffmpeg keeps saying that profile=main10 is an unknown option. 1 [XannyFamily][파일] The Dark Knight 2008 1080p Bluray 10-bit x265 HEVC TrueHD AC3 5. I figured I'll run a very quick test to show what I've seen What I did was record a 6 second video using my Samsung Note 5 in 1080P of the sky one afternoon with a. I tested with a number of movies, old and new, the results are the same. NOTE: Installation is only possible when using a clean (blank) machine with no other prior version of Windows already installed. 1 [XannyFamily] 토렌트 링크 제공 서치엔진. By using www. My settings for 1080p movies. Priority - priority of the encoder The HWBOT x265 Benchmark implements security features which should block any attempt to replace external components of the benchmark. You can follow the question or vote as helpful, but you cannot reply to this thread. Скачать с помощью Mediaget. Traditionally, HandBrake adopts x265 as the HEVC encoder for HEVC and HEVC 10-bit/12-bit to achieve an efficient encoding process. Edit on Bitbucket. AAC-highcal. Zatím žádná historie ani nové verze těchto titulků. x265 supports the Main, Main 10, Main 12 and Main Still Picture profiles of HEVC (including intra-only profiles), utilizing a bit depth of either 8 bits or 10 bits per sample YCbCr with 4:2:0, 4:2:2 or 4:4:4 chroma subsampling. Home of the Windows 10 Codec Pack, a codec pack specially created for Windows 10 users. Скачать с помощью Mediaget. Bad Education 2019 1080p BluRay 10Bit x265 HEVC-HDETG-VS. It's no longer the case that support is lacking for basic playback and editing of H. It was written by Justin Haythe and based on the 1961 novel of the same name by Richard Yates. 0 ('Smarra') 64-bit Writing library : libebml v1. Create and Listen to your playlist, like and share your favorite music on the Wynk Music app. This is the official bootable ISO image of windows 10 pro final release for 32 bit and 64-bit versions from Microsoft. If you decide to spring for x265, take a look at the latest tools when you update. 10bit-GalaxyRG 01:39:15 | @ 1398 kb/s | | aac, 48000 Hz, stereo (eng) | 992. 265/HEVC compression standard. Is there a way to select either in the the converter when doing x265 encodes, didn't see one? Thanks, Marty. 265), 13 stops of dynamic range (16 stops with WDR). 265 a 10 bit,se il decoder del televisore è ad 8 bit ci sarà il rischio di non vedere i canali ed essere costretti a munirsi di un decoder esterno che supporti h. x265 Documentation. It can be done quickly and easily. 265 10-bit decoding videocard will smooth out the pixilation, artifacts and banding etc. Now to the part with 10 bit. 265) video encoder available anywhere. 265/HEVC compression standard. x265 Documentation. 4 OS: Windows 10 64-bit Ease of use: 1/10 Functionality: 1/10 Value for money: 1/10 Overall: 1/10 Report! If you check the media info of any online x265 download for test purposes you will mostly see 1 pass abr type encodes. It was a format that was pretty much only used by a few anime groups, so no one bothered. pinn Member. MP4, MKV, and M2TS are available for Bluray DVD 10-bit ripping. Support 192K/24bit audio decoding and output. Файл Кодек: H. Although BT. 1, 8, 7, Vista & 2008. First of all, Windows 10 on ARM is a 64-bit operating system, and there is no 32-bit version of it available. In pass 1, output to a null file descriptor, not an actual file. AAC-highcal. Video encoder is H. Any older system without one of the ab. Full Movies via Streaming Link for free. 4533 x86 & x64. ogv download. Download X265vfw-H. The latest version of the x265 vfw encoder comes also with the x265vfw DirectShow decoder so can be used in any DirectShow software like MPC-HC. It also ONLY supports those x264/x265 variants, so if you’re using the standard 8-bit CLI, you’ll still want to keep it around. iCarly (2009) Season S02 WEB 1080p x265 10bit AAC 2. mp4 -e x264_10bit. Also, please note that, although 10-bit and 4K UHD videos are available at the end of the list, decoding them in software is very demanding and most devices cannot handle the 720p videos are provided through Elecard. 265 10bit 4K now playback smoothly on most modern machines, due to better hardware acceleration. 7 x86 & x64. Now, if I hadn't hardcoded the dithering for the 10-bit encode and instead passed a high-bit-depth picture to x264, it would've resulted in even. By default, an x265 (HEVC) 8 vs 10-bit comparison is selected, at 400kbps and an encoding preset speed of "Slow". In comparison to AVC, HEVC offers from 25% to 50% better data compression at the same level of video quality, or substantially improved video quality at the. For example: HandBrakeCLI-10bit. Designed with next-gen Ultra HD and HDR TVs in mind, it supports a wide range of resolutions (including 720p, 1080p, and 4K) up to 8K and up to 10-bit color depth. 딥워터 호라이즌Deepwater Horizon (2016) 1080p 10bit Bluray x265 HEV…. Compress video with higher quality and lower bit rates than H. Top Gear / TV Show. For example, if you want to see the difference at insanely low bitrates, you might select a bitrate of 50 on each side, then hit the Show Changes. 264,VP9 등 최신 고품질 영상 코덱의 영상도 하드웨어 가속 기능을 사용하여 CPU 점유율이 매우 낮아 저사양 PC 또는 멀티 태스킹 환경에서도 원할하게 고품질 영상을 감상 할 수 있습니다. [Reaktor] Cowboy Bebop – Complete [1080p][x265][10-bit][Dual-Audio] Synopsis In the year 2071, humanity has colonized several of the planets and moons of the solar system leaving the now uninhabitable surface of planet Earth behind. BitLight10(sRB). 0 kHz Frame rate: 46. sk/i/R8KWSrl537WFIA. پیش نمایش فیلم اضافه شد. smazat odpovědět. Why do I need 4K 10-bit 4:2:2? 4K television sets with HDR support are now quickly becoming the new standard and the uptake in 4K 10-bit h. Designed with next-gen Ultra HD and HDR TVs in mind, it supports a wide range of resolutions (including 720p, 1080p, and 4K) up to 8K and up to 10-bit color depth. 77 GiB Duration : 1 h 29 min Overall bit rate Format/Info : High Efficiency Video Coding Format profile : Main [email protected]@Main Codec ID : V_MPEGH/ISO/HEVC Duration : 1 h 29 min Bit rate. 1 [XannyFamily]. "Enabling access to HEVC/H. I am an avid anime watcher and 10-bit performance is really important to me as I don't like to convert video and prefer these releases in terms of And given that sooner or later we're going to enter the HEVC era, it's also interesting how well the One will fare in decoding 720p/1080p H265-encoded video. [email protected] Codec ID : V_MPEGH/ISO/HEVC Duration : 26 s 527 ms Bit rate : 11. If you want to encode H. Zidoo x6pro var elimde. Type HEVC/x265. 1) [UTR] Black Panther (2018) (IMAX) + Extras (1080p BluRay x265 HEVC 10bit EAC3 7. 11GB 300 (2007) 1080p Blu-Ray x264 Dual Audio (Eng+Hin DD 5. Win32 binaries for CPU up to SSSE3 are compatible with Windows XP. [코미디] 로맨스와 담배 Romance.